Danger Close The Battle Of Long Tan 2019 BDRip 1080p

Torrent Details


Danger Close The Battle of Long Tan 2019 BDRip 1080p

NAME
Danger Close The Battle of Long Tan 2019 BDRip 1080p.torrent
CATEGORY
Movies
INFOHASH
b29d724ca84582e023d74221e64abd6f63fc350c
SIZE
9.2 GB in 1 file
ADDED
Uploaded on 20-05-2020 by our crawler pet called "Spidey".
SWARM
0 seeders & 0 peers
RATING
No votes yet.

Please login to vote for this torrent.


Description

Информация о фильме

Название: Опасная близость: Сражение при Лонгтане

Оригинальное название: Danger Close: The Battle of Long Tan

Год выхода: 2019

Жанр: История, военный, драма, боевик

Режиссер: Крив Стендерс

В ролях: Трэвис Фиммел, Тоби Блом, Александр Инглэнд, Аарон Гленнэйн, Ули Латукефу, Ричард Те Аре, Люк Брейси, Шон МакКарти, Моджиан Ариа, Райан Хэнс, Джордан Эбби-Янг, Джеймс Сторер, Бен Эслер, Энтони Хэйес, Ричард Роксбург, Даниэль Уэббер



О фильме:

Действие разворачивается во время войны во Вьетнаме в 1966 году. 18-го августа смешанное подразделение из неопытных австралийских и новозеландских солдат под командованием майора Гарри Смита вступило в перестрелку с превосходящими силами противника. Вьетконговцам удалось отрезать отряду путь к отступлению, однако отважные бойцы не собирались сдаваться. Вскоре у солдат Смита начинают заканчиваться боеприпасы, но командование находит способ помочь попавшим в окружение, вот только для этого австралийцам и новозеландцам нужно продержаться еще несколько часов...







Страна: Австралия

Студия: Deeper Water, Hoosegow Productions, Ingenious Media

Продолжительность: 01:58:18

Перевод: Профессиональный многоголосый | HDRezka Studio

*** Присутствует ненормативная лексика!

Файл

Кодек: x.264

Качество: BDRip 1080p

Видео: MPEG-4 AVC, 10.1 Mбит/с, 1920x800, 23.976 кадр/с

Аудио #1: Русский (АС3, 6 ch, 448 Кбит/с, 48.0 KHz) Профессиональный (многоголосый, закадровый) HDRezka Studio

Аудио #2: Английский (АС3, 6 ch, 640 Кбит/с, 48.0 KHz)

Субтитры: Русские (Forced), английские

► Без Рекламы!

Трейлер

MediaInfo Источник: Danger.Close.The.Battle.of.Long.Tan.2019.REMUX

General

Unique ID : 240070701685872473614104452131112097873 (0xB49BEF70C88B2A9B8F5006B72A701851)

Complete name : Danger.Close.The.Battle.of.Long.Tan.2019.BDRip.1080p.mkv

Format : Matroska

Format version : Version 4

File size : 9.22 GiB

Duration : 1 h 58 min

Overall bit rate : 11.2 Mb/s

Encoded date : UTC 2020-05-20 19:40:18

Writing application : mkvmerge v7.1.0 ('Good Love') 64bit built on Jul 27 2014 13:06:55

Writing library : libebml v1.3.0 + libmatroska v1.4.1



Video

ID : 1

Format : AVC

Format/Info : Advanced Video Codec

Format profile : [email protected]

Format settings : CABAC / 5 Ref Frames

Format settings, CABAC : Yes

Format settings, Reference fra : 5 frames

Codec ID : V_MPEG4/ISO/AVC

Duration : 1 h 58 min

Bit rate : 10.1 Mb/s

Width : 1 920 pixels

Height : 800 pixels

Display aspect ratio : 2.40:1

Frame rate mode : Constant

Frame rate : 23.976 (24000/1001) FPS

Color space : YUV

Chroma subsampling : 4:2:0

Bit depth : 8 bits

Scan type : Progressive

Bits/(Pixel*Frame) : 0.274

Stream size : 8.32 GiB (90%)

Writing library : x264 core 157 r2958 57baac4

Encoding settings : cabac=1 / ref=5 / deblock=1:-3:-3 / analyse=0x3:0x113 / me=umh / subme=11 / psy=1 / psy_rd=1.00:0.00 / mixed_ref=1 / me_range=48 / chroma_me=1 / trellis=2 / 8x8dct=1 / cqm=0 / deadzone=21,11 / fast_pskip=1 / chroma_qp_offset=-2 / threads=18 / lookahead_threads=4 / sliced_threads=0 / nr=0 / decimate=1 / interlaced=0 / bluray_compat=0 / constrained_intra=0 / bframes=10 / b_pyramid=2 / b_adapt=2 / b_bias=0 / direct=3 / weightb=1 / open_gop=0 / weightp=2 / keyint=240 / keyint_min=24 / scenecut=40 / intra_refresh=0 / rc_lookahead=60 / rc=2pass / mbtree=1 / bitrate=10100 / ratetol=1.0 / qcomp=0.60 / qpmin=0 / qpmax=69 / qpstep=4 / cplxblur=20.0 / qblur=0.5 / vbv_maxrate=50000 / vbv_bufsize=60500 / nal_hrd=none / filler=0 / ip_ratio=1.40 / aq=1:1.00

Language : English

Default : Yes

Forced : No



Audio #1

ID : 2

Format : AC-3

Format/Info : Audio Coding 3

Commercial name : Dolby Digital

Codec ID : A_AC3

Duration : 1 h 58 min

Bit rate mode : Constant

Bit rate : 448 kb/s

Channel(s) : 6 channels

Channel layout : L R C LFE Ls Rs

Sampling rate : 48.0 kHz

Frame rate : 31.250 FPS (1536 SPF)

Compression mode : Lossy

Stream size : 379 MiB (4%)

Title : MVO | HDRezka Studio

Language : Russian

Service kind : Complete Main

Default : Yes

Forced : No



Audio #2

ID : 3

Format : AC-3

Format/Info : Audio Coding 3

Commercial name : Dolby Digital

Codec ID : A_AC3

Duration : 1 h 58 min

Bit rate mode : Constant

Bit rate : 640 kb/s

Channel(s) : 6 channels

Channel layout : L R C LFE Ls Rs

Sampling rate : 48.0 kHz

Frame rate : 31.250 FPS (1536 SPF)

Compression mode : Lossy

Stream size : 542 MiB (6%)

Language : English

Service kind : Complete Main

Default : No

Forced : No



Text #1

ID : 4

Format : UTF-8

Codec ID : S_TEXT/UTF8

Codec ID/Info : UTF-8 Plain Text

Duration : 1 h 46 min

Bit rate : 3 b/s

Count of elements : 37

Stream size : 2.66 KiB (0%)

Title : forced

Language : Russian

Default : Yes

Forced : No



Text #2

ID : 5

Format : UTF-8

Codec ID : S_TEXT/UTF8

Codec ID/Info : UTF-8 Plain Text

Duration : 1 h 45 min

Bit rate : 46 b/s

Count of elements : 1242

Stream size : 35.6 KiB (0%)

Language : English

Default : No

Forced : No



Menu

00:00:00.000 : :Chapter 01

00:11:06.958 : :Chapter 02

00:19:46.310 : :Chapter 03

00:28:36.298 : :Chapter 04

00:39:33.830 : :Chapter 05

00:50:00.539 : :Chapter 06

00:59:51.505 : :Chapter 07

01:09:46.140 : :Chapter 08

01:19:15.709 : :Chapter 09

01:29:16.268 : :Chapter 10

01:39:03.437 : :Chapter 11

01:45:30.074 : :Chapter 12

Скриншоты

Discussion

Comments 0

Post Your Comment

Files in this torrent

FILENAMESIZE
Danger.Close.The.Battle.of.Long.Tan.2019.BDRip.1080p.mkv9.2 GB

Alternative Torrents for 'Danger Close Battle of Long Tan'.

TORRENT NAMEADDEDSIZESEEDSPEERSHEALTH
6/5/2020699 MB00
6/5/2020700 MB00
6/4/20203.2 GB00
5/21/20203.3 GB00
5/20/20209.2 GB00
5/19/202030.7 GB00
2/13/20202.4 GB00
12/14/20199.2 GB00
12/14/20192.5 GB00
12/12/2019988 MB00
12/10/20195.4 GB00
12/10/20197.9 GB00
11/15/20192.4 GB00
11/12/20192.9 GB00
11/8/20196.2 GB00