Angel Has Fallen 2019 BDRip 1080p SeleZen

Torrent Details

Angel Has Fallen 2019 BDRip 1080p<span style=color:#fc9c6d> seleZen</span>
Angel Has Fallen 2019 BDRip 1080p<span style=color:#fc9c6d> seleZen</span>

NAME
Angel Has Fallen 2019 BDRip 1080p seleZen.torrent
CATEGORY
Movies
INFOHASH
174355d393d61cce0cad1049a44df400201402be
SIZE
14.7 GB in 1 file
ADDED
Uploaded on 20-05-2020 by our crawler pet called "Spidey".
SWARM
0 seeders & 0 peers
RATING
No votes yet.

Please login to vote for this torrent.


Description

Информация о фильме

Название: Падение ангела

Оригинальное название: Angel Has Fallen

Год выхода: 2019

Жанр: Боевик

Режиссер: Рик Роман Во

В ролях: Джерард Батлер, Морган Фримен, Фредерик Шмидт, Дэнни Хьюстон, Рокки Уильямс, Пайпер Перабо, Джада Пинкетт Смит, Гарри Дитсон, Ник Нолти, Лэнс Реддик, Тим Блэйк Нельсон, Крис Браунинг, Екатерина Гусарова, Ори Феффер, Жасмин Хайд, Майкл Лэндис, Марк Арнольд, Керри Шейл, Эндрю Брук, Мартин Берман, Райан Олива, Дерек Сиоу







О фильме: Третья часть антитеррористической экшен-франшизы про высококлассного агента секретной службы США Майка Бэннинга (Джерард Батлер), который спасает от смертельного заговора первых лиц мировой политики. На этот раз целью террористов становится сам Бэннинг. Его подставляют и обвиняют в покушении на президента страны (Морган Фриман) — и теперь его разыскивают все спецслужбы. Чтобы очистить свое доброе имя, Бэннингу нужно самостоятельно раскрыть заговор.



Страна: США

Студия: Campbell Grobman Films, Eclectic Pictures, G-BASE

Продолжительность: 02:01:03

Перевод: Дублированный | Лицензия



Качество: BDRip 1080p

Видео: MPEG-4 AVC, 1920x804, 16.1 Mbit/s, 23.976 fps

Аудио #01: 48 kHz, AC3, 5.1, 640 Kbps | Дублированный | RUS |

Аудио #02: 48 kHz, AC3, 5.1, 640 Kbps | Оригинал | ENG |

Субтитры: Русскиие (Full [Enigma]), английские







MIGeneral

Unique ID : 65118089109307435106329271695916366245 (0x30FD49AB89579081BC10277C99F779A5)

Complete name : E:Video111Angel.Has.Fallen.2019.BDRip.1080p.seleZen.mkv

Format : Matroska

Format version : Version 4

File size : 14.7 GiB

Duration : 2 h 1 min

Overall bit rate : 17.4 Mb/s

Movie name : Angel Has Fallen 2019 from селезень

Encoded date : UTC 2020-05-19 21:50:52

Writing application : mkvmerge v40.0.0 ('Old Town Road + Pony') 64-bit

Writing library : libebml v1.3.9 + libmatroska v1.5.2



Video

ID : 1

Format : AVC

Format/Info : Advanced Video Codec

Format profile : [email protected]

Format settings : CABAC / 5 Ref Frames

Format settings, CABAC : Yes

Format settings, Reference : 5 frames

Codec ID : V_MPEG4/ISO/AVC

Duration : 2 h 1 min

Bit rate : 16.1 Mb/s

Width : 1 920 pixels

Height : 804 pixels

Display aspect ratio : 2.40:1

Frame rate mode : Constant

Frame rate : 23.976 (24000/1001) FPS

Color space : YUV

Chroma subsampling : 4:2:0

Bit depth : 8 bits

Scan type : Progressive

Bits/(Pixel*Frame) : 0.434

Stream size : 13.6 GiB (93%)

Title : playHD

Writing library : x264 core 158 r2984+49 6932f4a t_mod_New [[email protected] X86_64]

Encoding settings : cabac=1 / ref=5 / deblock=1:-3:-3 / analyse=0x3:0x133 / me=umh / subme=10 / psy=1 / fade_compensate=0.00 / psy_rd=1.00:0.00 / mixed_ref=1 / me_range=32 / chroma_me=1 / trellis=2 / 8x8dct=1 / cqm=0 / deadzone=21,11 / fast_pskip=0 / chroma_qp_offset=-2 / threads=12 / lookahead_threads=3 / sliced_threads=0 / nr=0 / decimate=0 / interlaced=0 / bluray_compat=0 / constrained_intra=0 / fgo=0 / bframes=11 / b_pyramid=2 / b_adapt=2 / b_bias=0 / direct=3 / weightb=1 / open_gop=0 / weightp=2 / keyint=250 / keyint_min=23 / scenecut=40 / intra_refresh=0 / rc=crf / mbtree=0 / crf=16.5000 / qcomp=0.60 / qpmin=0:0:0 / qpmax=69:69:69 / qpstep=4 / ip_ratio=1.40 / pb_ratio=1.30 / aq=3:0.80 / aq-sensitivity=10.00 / aq-factor=1.00:1.00:1.00 / aq2=0 / aq3=0 / zones=32,443,b=1.7/924,1066,b=1.7/4308,4434,b=1.5/8092,8579,b=1.5/99706,99913,b=1.3/112671,112779,b=1.3

Language : English

Default : Yes

Forced : No



Audio #1

ID : 2

Format : AC-3

Format/Info : Audio Coding 3

Commercial name : Dolby Digital

Codec ID : A_AC3

Duration : 2 h 1 min

Bit rate mode : Constant

Bit rate : 640 kb/s

Channel(s) : 6 channels

Channel layout : L R C LFE Ls Rs

Sampling rate : 48.0 kHz

Frame rate : 31.250 FPS (1536 SPF)

Compression mode : Lossy

Stream size : 554 MiB (4%)

Title : Dub [License]

Language : Russian

Service kind : Complete Main

Default : Yes

Forced : Yes



Audio #2

ID : 3

Format : AC-3

Format/Info : Audio Coding 3

Commercial name : Dolby Digital

Codec ID : A_AC3

Duration : 2 h 1 min

Bit rate mode : Constant

Bit rate : 640 kb/s

Channel(s) : 6 channels

Channel layout : L R C LFE Ls Rs

Sampling rate : 48.0 kHz

Frame rate : 31.250 FPS (1536 SPF)

Compression mode : Lossy

Stream size : 554 MiB (4%)

Title : Original

Language : English

Service kind : Complete Main

Default : No

Forced : No



Text #1

ID : 4

Format : UTF-8

Codec ID : S_TEXT/UTF8

Codec ID/Info : UTF-8 Plain Text

Duration : 1 h 52 min

Bit rate : 98 b/s

Count of elements : 1454

Stream size : 81.6 KiB (0%)

Title : Full [Enigma]

Language : Russian

Default : No

Forced : No



Text #2

ID : 5

Format : UTF-8

Codec ID : S_TEXT/UTF8

Codec ID/Info : UTF-8 Plain Text

Duration : 1 h 51 min

Bit rate : 58 b/s

Count of elements : 1452

Stream size : 47.5 KiB (0%)

Title : Full

Language : English

Default : No

Forced : No



Text #3

ID : 6

Format : UTF-8

Codec ID : S_TEXT/UTF8

Codec ID/Info : UTF-8 Plain Text

Duration : 1 h 52 min

Bit rate : 63 b/s

Count of elements : 1580

Stream size : 52.7 KiB (0%)

Title : SDH

Language : English

Default : No

Forced : No



Menu

00:00:00.000 : :Chapter 01

00:06:48.950 : :Chapter 02

00:15:08.157 : :Chapter 03

00:23:13.809 : :Chapter 04

00:28:35.714 : :Chapter 05

00:39:39.627 : :Chapter 06

00:45:33.564 : :Chapter 07

00:50:56.053 : :Chapter 08

00:59:23.393 : :Chapter 09

01:06:50.882 : :Chapter 10

01:16:25.873 : :Chapter 11

01:24:11.046 : :Chapter 12

01:30:14.409 : :Chapter 13

01:37:42.064 : :Chapter 14

01:44:54.538 : :Chapter 15

01:51:08.120 : :Chapter 16



Релиз от:



Discussion

Comments 0

Post Your Comment

Files in this torrent

FILENAMESIZE
Angel.Has.Fallen.2019.BDRip.1080p.seleZen.mkv14.7 GB

Alternative Torrents for 'Angel Has Fallen'.

TORRENT NAMEADDEDSIZESEEDSPEERSHEALTH
6/22/20207.7 GB00
5/24/202010.9 GB00
5/22/20202.2 GB00
5/21/20205.5 GB00
5/20/20201.4 GB00
5/20/20202.9 GB00
5/20/20205.3 GB00
5/20/20201.5 GB00
5/20/20202.2 GB00
5/20/202014.7 GB00
4/12/202017 GB00
3/17/20201.3 GB00
3/14/20207.2 GB00
3/9/20204.4 GB00
2/12/20209.3 GB00