Danger Close The Battle Of Long Tan 2019 REMUX

Torrent Details


Danger Close The Battle of Long Tan 2019 REMUX

NAME
Danger Close The Battle of Long Tan 2019 REMUX.torrent
CATEGORY
Movies
INFOHASH
481e4875a50831f348afa04763fe47240f54c61a
SIZE
30.7 GB in 1 file
ADDED
Uploaded on 19-05-2020 by our crawler pet called "Spidey".
SWARM
0 seeders & 0 peers
RATING
No votes yet.

Please login to vote for this torrent.


Description

Информация о фильме

Название: Опасная близость: Сражение при Лонгтане

Оригинальное название: Danger Close: The Battle of Long Tan

Год выпуска: 2019

Жанр: История, военный, драма, боевик

Режиссер: Крив Стендерс

В ролях: Трэвис Фиммел, Тоби Блом, Александр Инглэнд, Аарон Гленнэйн, Ули Латукефу, Ричард Те Аре, Люк Брейси, Шон МакКарти, Моджиан Ариа, Райан Хэнс



О фильме: События картины происходят летом 1966 года во Вьетнаме. Рота в основном неопытных австралийских и новозеландских солдат встречается в битве при Лонгтане с превосходящими силами Вьетконга. В один из дней, австралийские и новозеландские ребята натыкаются на вражеский отряд, превосходящий их количество в множество раз. С этого момента начинается жёсткая борьба за выживание.







Страна: Австралия

Студия: Deeper Water, Hoosegow Productions, Ingenious Media

Продолжительность: 01:58:18

Перевод: Профессиональный (многоголосый, закадровый) | HDRezka Studio



Файл

Качество: BDRemux 1080p

Контейнер: MKV

Видео: MPEG-4 AVC, 1920x1080 (16:9), 32956 kbps, 23.976 fps

Аудио 1: Russian: АС3, 6 ch, 48 kHz, 448 kbps, 16 bits - MVO, HDRezka Studio

Аудио 2: English: DTS-HD MA, 6 ch, 48 kHz, 3760 kbps - Original

Субтитры: Русские (Forced), английские



Скриншоты

MediaInfoGeneral

Unique ID : 213120243825552392537444132220616338513 (0xA0557747713F0ACE25BE34C360E86C51)

Complete name : G:Danger.Close.The.Battle.of.Long.Tan.2019.REMUX.mkv

Format : Matroska

Format version : Version 4

File size : 30.7 GiB

Duration : 1 h 58 min

Overall bit rate mode : Variable

Overall bit rate : 37.2 Mb/s

Encoded date : UTC 2020-05-19 11:09:18

Writing application : mkvmerge v20.0.0 ('I Am The Sun') 64-bit

Writing library : libebml v1.3.5 + libmatroska v1.4.8



Video

ID : 1

Format : AVC

Format/Info : Advanced Video Codec

Format profile : [email protected]

Format settings : CABAC / 3 Ref Frames

Format settings, CABAC : Yes

Format settings, Reference frames : 3 frames

Codec ID : V_MPEG4/ISO/AVC

Duration : 1 h 58 min

Bit rate mode : Variable

Bit rate : 33.0 Mb/s

Maximum bit rate : 37.0 Mb/s

Width : 1 920 pixels

Height : 1 080 pixels

Display aspect ratio : 16:9

Frame rate mode : Constant

Frame rate : 23.976 (24000/1001) FPS

Color space : YUV

Chroma subsampling : 4:2:0

Bit depth : 8 bits

Scan type : Progressive

Bits/(Pixel*Frame) : 0.663

Stream size : 27.2 GiB (89%)

Language : English

Default : Yes

Forced : No



Audio #1

ID : 2

Format : AC-3

Format/Info : Audio Coding 3

Commercial name : Dolby Digital

Codec ID : A_AC3

Duration : 1 h 58 min

Bit rate mode : Constant

Bit rate : 448 kb/s

Channel(s) : 6 channels

Channel layout : L R C LFE Ls Rs

Sampling rate : 48.0 kHz

Frame rate : 31.250 FPS (1536 SPF)

Compression mode : Lossy

Stream size : 379 MiB (1%)

Title : MVO, HDRezka Studio

Language : Russian

Service kind : Complete Main

Default : Yes

Forced : No



Audio #2

ID : 3

Format : DTS XLL

Format/Info : Digital Theater Systems

Commercial name : DTS-HD Master Audio

Codec ID : A_DTS

Duration : 1 h 58 min

Bit rate mode : Variable

Bit rate : 3 760 kb/s

Channel(s) : 6 channels

Channel layout : C L R Ls Rs LFE

Sampling rate : 48.0 kHz

Frame rate : 93.750 FPS (512 SPF)

Bit depth : 24 bits

Compression mode : Lossless

Stream size : 3.11 GiB (10%)

Language : English

Default : No

Forced : No



Text #1

ID : 4

Format : UTF-8

Codec ID : S_TEXT/UTF8

Codec ID/Info : UTF-8 Plain Text

Duration : 1 h 46 min

Bit rate : 3 b/s

Count of elements : 37

Stream size : 2.66 KiB (0%)

Title : forced

Language : Russian

Default : Yes

Forced : No



Text #2

ID : 5

Format : UTF-8

Codec ID : S_TEXT/UTF8

Codec ID/Info : UTF-8 Plain Text

Duration : 1 h 45 min

Bit rate : 46 b/s

Count of elements : 1242

Stream size : 35.6 KiB (0%)

Language : English

Default : No

Forced : No



Menu

00:00:00.000 : :Chapter 01

00:11:06.958 : :Chapter 02

00:19:46.310 : :Chapter 03

00:28:36.298 : :Chapter 04

00:39:33.830 : :Chapter 05

00:50:00.539 : :Chapter 06

00:59:51.505 : :Chapter 07

01:09:46.140 : :Chapter 08

01:19:15.709 : :Chapter 09

01:29:16.268 : :Chapter 10

01:39:03.437 : :Chapter 11

01:45:30.074 : :Chapter 12

Discussion

Comments 0

Post Your Comment

Files in this torrent

FILENAMESIZE
Danger.Close.The.Battle.of.Long.Tan.2019.REMUX.mkv30.7 GB

Alternative Torrents for 'Danger Close Battle of Long Tan REMUX'.

TORRENT NAMEADDEDSIZESEEDSPEERSHEALTH
5/19/202030.7 GB00