The Elephant King 2017 WEB-DLRip-AVC ExKinoRay

Torrent Details


The Elephant King 2017 WEB-DLRip-AVC<span style=color:#fc9c6d> ExKinoRay</span>

NAME
The Elephant King 2017 WEB-DLRip-AVC ExKinoRay.torrent
CATEGORY
Anime
INFOHASH
f61e89242e16c566ea7ce9c03e204a7ea0cbde9b
SIZE
746 MB in 1 file
ADDED
Uploaded on 26-03-2020 by our crawler pet called "Spidey".
SWARM
0 seeders & 0 peers
RATING
No votes yet.

Please login to vote for this torrent.


Description

Информация о фильме

Название: Король Слон

Оригинальное название: The Elephant King

Год выпуска: 2017

Жанр: Мультфильм, фэнтези, комедия, приключения, семейный, история

Режиссер: Хади Мохаммадян

Актеры: Саид Шейхзаде, Оссейн Эрфани, Нассер Тахмасб, Зохре Шокуфанде, Бахрам Занд, Джордж Петроси, Акбар Маннани, Шаукат Хойят, Хамед Азизи, Ардешир Моназам



О фильме:

Стать Королем слонов — задача очень сложная, даже если у тебя золотое сердце, ты огромный и сильный, а твой папа — тоже король. Поэтому юному Счастливчику пришлось пройти через столько испытаний! Сразиться в турнире с другими претендентами на трон, вступить в войну с охотниками за бивнями, выйти на арену против разъяренных тигров… И всегда помнить наказ мудрого отца «Чтобы быть настоящим вожаком, надо делать добрые дела, никогда не обижать слабых и верить в себя». И даже этого мало, если у тебя нет верных друзей.









Страна: Иран, Ливан

Студия: Honarpooya Group

Продолжительность: 01:07:56

Перевод: Профессиональный (полное дублирование) | iTunes



Файл

Формат: MKV

Качество: WEB-DLRip-AVC

Видео: MPEG-4 AVC, 808x336, - 1458 Кбит/с

Аудио: AAC-HE, 2 ch, - 76 Кбит/с

Субтитры: Нет



MIОбщее

Уникальный идентификатор : 109673841013627376750535880154401583062 (0x528269D80467A9C2EAB963DC0241AFD6)

Полное имя : D:MOVIESThe.Elephant.King.2017.WEB-DLRip-AVC.ExKinoRay.mkv

Формат : Matroska

Версия формата : Version 4 / Version 2

Размер файла : 746 Мбайт

Продолжительность : 1 ч. 7 м.

Общий поток : 1535 Кбит/сек

Дата кодирования : UTC 2020-03-26 04:41:47

Программа кодирования : mkvmerge v35.0.0 ('All The Love In The World') 64-bit

Библиотека кодирования : libebml v1.3.9 + libmatroska v1.5.2



Видео

Идентификатор : 1

Формат : AVC

Формат/Информация : Advanced Video Codec

Профиль формата : [email protected]

Параметр CABAC формата : Да

Параметр RefFrames формата : 12 кадров

Идентификатор кодека : V_MPEG4/ISO/AVC

Продолжительность : 1 ч. 7 м.

Битрейт : 1458 Кбит/сек

Ширина : 808 пикселей

Высота : 336 пикселей

Соотношение сторон : 2,40:1

Режим частоты кадров : Постоянный

Частота кадров : 24,000 кадра/сек

Цветовое пространство : YUV

Субдискретизация насыщенности : 4:2:0

Битовая глубина : 8 бит

Тип развёртки : Прогрессивная

Бит/(Пиксели*Кадры) : 0.224

Размер потока : 708 Мбайт (95%)

Библиотека кодирования : x264 core 159 r2991 1771b55

Настройки программы : cabac=1 / ref=12 / deblock=1:-3:-3 / analyse=0x3:0x133 / me=umh / subme=10 / psy=1 / psy_rd=1.00:0.14 / mixed_ref=1 / me_range=32 / chroma_me=1 / trellis=2 / 8x8dct=1 / cqm=0 / deadzone=21,11 / fast_pskip=0 / chroma_qp_offset=-3 / threads=6 / lookahead_threads=1 / sliced_threads=0 / nr=0 / decimate=0 / interlaced=0 / bluray_compat=0 / constrained_intra=0 / bframes=12 / b_pyramid=2 / b_adapt=2 / b_bias=0 / direct=3 / weightb=1 / open_gop=0 / weightp=2 / keyint=240 / keyint_min=24 / scenecut=40 / intra_refresh=0 / rc_lookahead=40 / rc=2pass / mbtree=1 / bitrate=1458 / ratetol=1.0 / qcomp=0.70 / qpmin=0 / qpmax=69 / qpstep=4 / cplxblur=20.0 / qblur=0.5 / ip_ratio=1.40 / aq=3:1.00

Default : Да

Forced : Нет



Аудио

Идентификатор : 2

Формат : AAC

Формат/Информация : Advanced Audio Codec

Профиль формата : HE-AAC / LC

Идентификатор кодека : A_AAC

Продолжительность : 1 ч. 7 м.

Битрейт : 76,0 Кбит/сек

Каналы : 2 канала

Расположение каналов : Front: L R

Частота : 48,0 КГц / 24,0 КГц

Частота кадров : 23,438 кадра/сек (1024 SPF)

Метод сжатия : С потерями

Задержка видео : 31 мс.

Размер потока : 36,9 Мбайт (5%)

Default : Да

Forced : Нет



Меню

00:00:00.000 : en:Глава 1

00:02:13.750 : en:Глава 2

00:07:34.916 : en:Глава 3

00:11:48.416 : en:Глава 4

00:17:49.041 : en:Глава 5

00:24:21.582 : en:Глава 6

00:29:13.915 : en:Глава 7

00:38:34.123 : en:Глава 8

00:46:30.956 : en:Глава 9

00:51:41.497 : en:Глава 10

00:56:46.997 : en:Глава 11

01:03:46.538 : en:Глава 12

Скриншоты





Discussion

Comments 0

Post Your Comment

Files in this torrent

FILENAMESIZE
The.Elephant.King.2017.WEB-DLRip-AVC.ExKinoRay.mkv746 MB

Alternative Torrents for 'Elephant King DLRipAVC'.

TORRENT NAMEADDEDSIZESEEDSPEERSHEALTH
Yesterday2.1 GB13892
Yesterday1 GB7963
6/26/2020165 MB746
Today1.3 GB5925
Yesterday902 MB535
6/29/20201.4 GB495
6/29/20201.4 GB3615
Today2.9 GB3511
6/28/2020133 MB281
6/23/20202.9 GB289
7/1/20206 GB267
Yesterday281 MB2321
6/30/2020746 MB221
6/23/20202 MB193
6/22/20205.5 GB193