The Donkey King 2018 WEB-DLRip(AVC) OlLanDGroup

Torrent Details


The Donkey King 2018 WEB-DLRip(AVC)<span style=color:#fc9c6d> OlLanDGroup</span>

NAME
The Donkey King 2018 WEB-DLRip(AVC) OlLanDGroup.torrent
CATEGORY
Anime
INFOHASH
3594fb3727de237bb6192bd303ce4f2d8556a995
SIZE
746 MB in 1 file
ADDED
Uploaded on 12-02-2020 by our crawler pet called "Spidey".
SWARM
0 seeders & 0 peers
RATING
No votes yet.

Please login to vote for this torrent.


Description

Информация

Название: Царь зверей

Оригинальное название: The Donkey King

Год выхода: 2018

Жанр: Мультфильм, комедия, семейный

Режиссер: Азиз Джиндани

Роли озвучивают: Афзал Кхан, Хина Дильпазир, Гулам Мохиуддин, Адиль Хашми, Файзал Куреши, Джавед Шейх, Шафат Али, Васай Чодри, Шаббир Ян, Ахсан Рахим



Описание: «Если ты родился ослом, то не обязательно всю жизнь жить как осел. Мечтай, и твои мечты осуществятся». Получив такое напутствие от отца, осел по имени Мангу с оптимизмом смотрит на жизнь. И однажды ему действительно улыбается удача. В стране грядут выборы нового правителя. По невероятному стечению обстоятельств, претендентов на трон всего двое: он и избалованный принц, которого народ терпеть не может. Казалось бы, дело в шляпе, а корона на голове у ослика! Но сможет ли простой осел из бедной семьи стать царем зверей? Ведь речи произносить его никто не учил, а всё, чем он управлял — это утюг и доска для стирки белья!







Страна: Пакистан

Студия: Talisman Animations

Продолжительность: 01:41:49

Перевод: Дублированный | iTunes



Файл

Формат: MKV

Качество: WEB-DLRip-AVC

Источник: |The.Donkey.King.2018.720p.WEB-DL.Rus.TeamHD|

Видео: 720x302 (2.40:1), 24 fps, x264 ~958 kbps avg, 0.184 bit/pixel

Звук: 48 kHz, HE-AAC, 2 ch, ~64 kbps avg | RUS

Субтитры: Нет MediaInfo:General

Unique ID : 236366639146335691406339834889248470819 (0xB1D28F0EBC86685B0B05187F21687723)

Complete name : C:UsersSkandarVideosThe.Donkey.King.2018.WEB-DLRip(AVC).OlLanDGroup.mkv

Format : Matroska

Format version : Version 4

File size : 746 MiB

Duration : 1 h 41 min

Overall bit rate : 1 024 kb/s

Movie name : The.Donkey.King.2018.WEB-DLRip(AVC).OlLanDGroup#Skandar#

Encoded date : UTC 2020-01-18 04:38:29

Writing application : mkvmerge v31.0.0 ('Dolores In A Shoestand') 64-bit

Writing library : libebml v1.3.6 + libmatroska v1.4.9



Video

ID : 1

Format : AVC

Format/Info : Advanced Video Codec

Format profile : [email protected]

Format settings : CABAC / 10 Ref Frames

Format settings, CABAC : Yes

Format settings, ReFrames : 10 frames

Codec ID : V_MPEG4/ISO/AVC

Duration : 1 h 41 min

Bit rate : 958 kb/s

Width : 720 pixels

Height : 302 pixels

Display aspect ratio : 2.40:1

Frame rate mode : Constant

Frame rate : 24.000 FPS

Color space : YUV

Chroma subsampling : 4:2:0

Bit depth : 8 bits

Scan type : Progressive

Bits/(Pixel*Frame) : 0.184

Stream size : 698 MiB (94%)

Title : The.Donkey.King.2018.WEB-DLRip(AVC).OlLanDGroup#Skandar#

Writing library : x264 core 146 r2538 121396c

Encoding settings : cabac=1 / ref=10 / deblock=1:-3:-3 / analyse=0x3:0x133 / me=umh / subme=11 / psy=1 / psy_rd=0.97:0.05 / mixed_ref=1 / me_range=48 / chroma_me=1 / trellis=2 / 8x8dct=1 / cqm=0 / deadzone=21,11 / fast_pskip=0 / chroma_qp_offset=-3 / threads=6 / lookahead_threads=1 / sliced_threads=0 / nr=0 / decimate=0 / interlaced=0 / bluray_compat=0 / constrained_intra=0 / bframes=11 / b_pyramid=2 / b_adapt=2 / b_bias=0 / direct=3 / weightb=1 / open_gop=0 / weightp=2 / keyint=240 / keyint_min=23 / scenecut=40 / intra_refresh=0 / rc_lookahead=40 / rc=2pass / mbtree=0 / bitrate=958 / ratetol=1.0 / qcomp=0.60 / qpmin=0 / qpmax=69 / qpstep=4 / cplxblur=20.0 / qblur=0.5 / vbv_maxrate=50000 / vbv_bufsize=62500 / nal_hrd=none / filler=0 / ip_ratio=1.40 / pb_ratio=1.30 / aq=1:1.00

Language : English

Default : Yes

Forced : No



Audio

ID : 2

Format : AAC LC SBR

Format/Info : Advanced Audio Codec Low Complexity with Spectral Band Replication

Commercial name : HE-AAC

Format settings : Explicit

Codec ID : A_AAC-2

Duration : 1 h 41 min

Bit rate : 64.0 kb/s

Channel(s) : 2 channels

Channel layout : L R

Sampling rate : 48.0 kHz

Frame rate : 23.438 FPS (2048 SPF)

Compression mode : Lossy

Delay relative to video : 31 ms

Stream size : 46.6 MiB (6%)

Title : DUB | iTunes Russia

Language : Russian

Default : Yes

Forced : No



Menu

00:00:00.000 : en:Глава 1

00:09:43.541 : en:Глава 2

00:19:31.874 : en:Глава 3

00:27:44.624 : en:Глава 4

00:37:06.082 : en:Глава 5

00:46:58.332 : en:Глава 6

00:57:11.540 : en:Глава 7

01:07:08.373 : en:Глава 8

01:16:46.581 : en:Глава 9

01:25:19.331 : en:Глава 10

01:33:24.039 : en:Глава 11 Скриншоты







Релиз от:

Discussion

Comments 0

Post Your Comment

Files in this torrent

FILENAMESIZE
The.Donkey.King.2018.WEB-DLRip(AVC).OlLanDGroup.mkv745.6 MB

Alternative Torrents for 'Donkey King DLRipAVC'.

TORRENT NAMEADDEDSIZESEEDSPEERSHEALTH
7/6/20201.5 GB22560
7/6/20203 GB16640
7/12/20202.6 GB7069
7/12/20201.4 GB6865
7/12/2020336 MB658
7/9/20202.5 GB4019
7/7/20202 MB390
7/9/20201.4 GB3410
7/7/20209 MB332
7/6/20201.3 GB249
7/12/20202 GB225
7/5/20201 GB225
6/29/20201.4 GB193
6/29/20201.4 GB188
Yesterday2.4 GB175