Падение ангела (Angel Has Fallen) 2019 BDRip 1080p

Torrent Details


Падение ангела (Angel Has Fallen) 2019 BDRip 1080p

NAME
Падение ангела (Angel Has Fallen) 2019 BDRip 1080p.torrent
CATEGORY
Movies
INFOHASH
8070e959c7bd40483839adbb3992303dd428d54d
SIZE
9.3 GB in 0 files
ADDED
Uploaded on 12-02-2020 by our crawler pet called "Spidey".
SWARM
0 seeders & 0 peers
RATING
No votes yet.

Please login to vote for this torrent.


Description

Название: Падение ангела

Оригинальное название: Angel Has Fallen

Год выхода: 2019



Страна: США

Студия: Millennium Films, G-BASE, Campbell Grobman Films

Продолжительность: 02:01:03

Жанр: боевик, триллер



Режиссер: Элай Рот

В ролях: Джерард Батлер, Морган Фриман, Дэнни Хьюстон, Майкл Лэндис, Ник Нолти, Тим Блейк Нельсон, Пайпер Перабо, Джада Пинкетт Смит, Лэнс Реддик, Марк Арнольд, ...



Перевод:

- профессиональный (дублированный) ? iTunes

- Субтитры от Enigma



О фильме: На президента США совершено покушение, главный обвиняемый — верный ангел-хранитель главы государства и агент секретной службы Майк Бэннинг. Скрываясь от ФБР, он должен найти тех, кто его подставил, и спасти страну и ее лидера от смертельной угрозы…













Кодек: x264

Качество: BDRip 1080p

Видео: 1920x804, 10000 kbps, 23,976 fps

Аудио #1: AC-3, 6 ch, 384 kbps (Rus) - Dub iTunes

Аудио #2: AC-3, 6 ch, 640 kbps (Eng)

Субтитры: русские, английские

Спасибо за исходник



MediaInfo

x264 [info]: frame I:1164 Avg QP:14.28 size:182208

x264 [info]: frame P:41972 Avg QP:17.01 size: 85633

x264 [info]: frame B:131009 Avg QP:18.87 size: 40149

x264 [info]: consecutive B-frames: 4.0% 5.4% 9.5% 19.6% 14.1% 34.3% 5.1% 1.1% 1.7% 1.2% 1.1% 0.9% 2.1%



Общее

Уникальный идентификатор : 233801261471683684962390834940565518655 (0xAFE47C2C4309E632B6183FD1427FF93F)

Полное имя : Падение ангела (Angel Has Fallen) 2019 BDRip 1080p.mkv

Формат : Matroska

Версия формата : Version 2

Размер файла : 9,31 Гбайт

Продолжительность : 2 ч. 1 м.

Общий поток : 11,0 Мбит/сек

Дата кодирования : UTC 2020-01-28 16:54:00

Программа кодирования : mkvmerge v4.0.0 ('The Stars were mine') сборка от Jun 6 2010 16:18:42

Библиотека кодирования : libebml v1.0.0 + libmatroska v1.0.0



Видео

Идентификатор : 1

Формат : AVC

Формат/Информация : Advanced Video Codec

Профиль формата : [email protected]

Параметр CABAC формата : Да

Параметр ReFrames формата : 5 кадров

Идентификатор кодека : V_MPEG4/ISO/AVC

Продолжительность : 2 ч. 1 м.

Битрейт : 10000 Кбит/сек

Ширина : 1920 пикселей

Высота : 804 пикселя

Соотношение сторон : 2,40:1

Режим частоты кадров : Постоянный

Частота кадров : 23,976 (24000/1001) кадра/сек

Цветовое пространство : YUV

Субдискретизация насыщенности : 4:2:0

Битовая глубина : 8 бит

Тип развёртки : Прогрессивная

Бит/(Пиксели*Кадры) : 0.270

Размер потока : 8,26 Гбайт (89%)

Библиотека кодирования : x264 core 146 r2538 121396c

Настройки программы : cabac=1 / ref=5 / deblock=1:-2:-2 / analyse=0x3:0x133 / me=umh / subme=11 / psy=1 / psy_rd=1.00:0.00 / mixed_ref=1 / me_range=32 / chroma_me=1 / trellis=2 / 8x8dct=1 / cqm=0 / deadzone=21,11 / fast_pskip=0 / chroma_qp_offset=-2 / threads=12 / lookahead_threads=2 / sliced_threads=0 / nr=0 / decimate=0 / interlaced=0 / bluray_compat=0 / constrained_intra=0 / bframes=12 / b_pyramid=2 / b_adapt=2 / b_bias=0 / direct=3 / weightb=1 / open_gop=0 / weightp=2 / keyint=240 / keyint_min=23 / scenecut=40 / intra_refresh=0 / rc=2pass / mbtree=0 / bitrate=10000 / ratetol=1.0 / qcomp=0.60 / qpmin=0 / qpmax=69 / qpstep=4 / cplxblur=20.0 / qblur=0.5 / ip_ratio=1.40 / pb_ratio=1.30 / aq=3:0.80

Язык : English

Default : Нет

Forced : Нет



Аудио #1

Идентификатор : 2

Формат : AC-3

Формат/Информация : Audio Coding 3

Расширение режима : CM (complete main)

Параметр Endianness формата : Big

Идентификатор кодека : A_AC3

Продолжительность : 2 ч. 1 м.

Вид битрейта : Постоянный

Битрейт : 384 Кбит/сек

Каналы : 6 каналов

Расположение каналов : Front: L C R, Side: L R, LFE

Частота : 48,0 КГц

Частота кадров : 31,250 кадров/сек (1536 spf)

Метод сжатия : С потерями

Размер потока : 332 Мбайт (3%)

Заголовок : Dub iTunes

Язык : Russian

Default : Нет

Forced : Нет



Аудио #2

Идентификатор : 3

Формат : AC-3

Формат/Информация : Audio Coding 3

Расширение режима : CM (complete main)

Параметр Endianness формата : Big

Идентификатор кодека : A_AC3

Продолжительность : 2 ч. 1 м.

Вид битрейта : Постоянный

Битрейт : 640 Кбит/сек

Каналы : 6 каналов

Расположение каналов : Front: L C R, Side: L R, LFE

Частота : 48,0 КГц

Частота кадров : 31,250 кадров/сек (1536 spf)

Метод сжатия : С потерями

Размер потока : 554 Мбайт (6%)

Язык : English

Default : Нет

Forced : Нет



Текст #1

Идентификатор : 4

Формат : UTF-8

Идентификатор кодека : S_TEXT/UTF8

Идентификатор кодека/Информация : UTF-8 Plain Text

Заголовок : Full (Enigma)

Язык : Russian

Default : Нет

Forced : Нет



Текст #2

Идентификатор : 5

Формат : UTF-8

Идентификатор кодека : S_TEXT/UTF8

Идентификатор кодека/Информация : UTF-8 Plain Text

Язык : English

Default : Нет

Forced : Нет



Текст #3

Идентификатор : 6

Формат : UTF-8

Идентификатор кодека : S_TEXT/UTF8

Идентификатор кодека/Информация : UTF-8 Plain Text

Заголовок : SDH

Язык : English

Default : Нет

Forced : Нет



Текст #4

Идентификатор : 7

Формат : UTF-8

Идентификатор кодека : S_TEXT/UTF8

Идентификатор кодека/Информация : UTF-8 Plain Text

Заголовок : SDH Colored

Язык : English

Default : Нет

Forced : Нет



Меню

00:00:00.000 : en:Chapter 01

00:06:48.949 : en:Chapter 02

00:15:08.157 : en:Chapter 03

00:23:13.808 : en:Chapter 04

00:28:35.712 : en:Chapter 05

00:39:39.626 : en:Chapter 06

00:45:33.563 : en:Chapter 07

00:50:56.051 : en:Chapter 08

00:59:23.393 : en:Chapter 09

01:06:50.880 : en:Chapter 10

01:16:25.872 : en:Chapter 11

01:24:11.045 : en:Chapter 12

01:30:14.408 : en:Chapter 13

01:37:42.064 : en:Chapter 14

01:44:54.537 : en:Chapter 15

01:51:08.118 : en:Chapter 16





Discussion

Comments 0

Post Your Comment

Torrent Files (Unavailable)

Please check back later to get a list of all files included in this torrent.

Alternative Torrents for 'Падение ангела Angel Has Fallen'.

TORRENT NAMEADDEDSIZESEEDSPEERSHEALTH
2/12/20209.3 GB00